팝업레이어 알림

badaboa_block.png
 [구글검색] 구글에서 바다보아 검색 - 구글에서 토렌트를 검색하실 때에 검색어 뒤에 바다보아를 꼭 붙여서 검색하세요.

토렌트서치 스피드자료실

   

   

Cradle 2 the Grave (2003) (초고화질 BDRip x265 10bit EAC3 5.1 - xtre...

댓글 : 0 조회 : 3 자료 없을때



Hello everyone,
We are TAoE, a small team of passionate encoders who love encoding. We try our best to provide you with high quality releases.

Requests for movies and shows are welcome.
We have a form for encode requests which can be found here
Encode requests form
submit your request and it will be added to our encoding request list
You can view our encoding request list here
Encode requests list


When or if we encode it will depend on if we can obtain a good source to encode with and
if one of the TAoE encoders chooses to encode it. Unfortunately we are not able to encode everything,
new members are welcome as that helps us encode more content!

If you would like to join TAoE submit your request here!
TAoE member applications form




Cradle 2 the Grave (2003) IMDB










Media Information



General
Unique ID : 74036887521454211420765784244746968718 (0x37B2FC61C23C1B01A2CC1D9726ABDE8E)
Complete name : Cradle 2 the Grave (2003) (초고화질 BDRip x265 10bit EAC3 5.1 - xtrem3x)[TAoE].mkv
Format : Matroska
Format version : Version 4
File size : 7.21 GiB
Duration : 1 h 41 min
Overall bit rate : 10.2 Mb/s
Writing application : Lavf58.29.100
Writing library : Lavf58.29.100
ErrorDetectionType : Per level 1
IMDB : tt0306685
TMDB : movie/10623

Video
ID : 1
Format : HEVC
Format/Info : High Efficiency Video Coding
Format profile : Main [email protected]@Main
Codec ID : V_MPEGH/ISO/HEVC
Duration : 1 h 41 min
Bit rate : 9 522 kb/s
Width : 1 920 pixels
Height : 1 080 pixels
Display aspect ratio : 16:9
Frame rate mode : Variable
Frame rate : 23.976 FPS
Color space : YUV
Chroma subsampling : 4:2:0
Bit depth : 10 bits
Bits/(Pixel*Frame) : 0.192
Stream size : 6.73 GiB (93%)
Title : Encoded by xtrem3x for TAoE using Shinguru V1.2
Writing library : x265 3.2+35-acc5d16999e2:[Windows][GCC 9.2.1][64 bit] 10bit
Encoding settings : cpuid=1111039 / frame-threads=3 / numa-pools=12 / wpp / no-pmode / no-pme / no-psnr / no-ssim / log-level=2 / input-csp=1 / input-res=1920x1080 / interlace=0 / total-frames=0 / level-idc=0 / high-tier=1 / uhd-bd=0 / ref=4 / no-allow-non-conformance / no-repeat-headers / annexb / no-aud / no-hrd / info / hash=0 / no-temporal-layers / open-gop / min-keyint=23 / keyint=250 / gop-lookahead=0 / bframes=8 / b-adapt=2 / b-pyramid / bframe-bias=0 / rc-lookahead=80 / lookahead-slices=4 / scenecut=40 / hist-scenecut=0 / radl=0 / no-splice / no-intra-refresh / ctu=64 / min-cu-size=8 / no-rect / no-amp / max-tu-size=32 / tu-inter-depth=1 / tu-intra-depth=1 / limit-tu=0 / rdoq-level=2 / dynamic-rd=0.00 / no-ssim-rd / signhide / no-tskip / nr-intra=0 / nr-inter=0 / no-constrained-intra / no-strong-intra-smoothing / max-merge=3 / limit-refs=3 / limit-modes / me=3 / subme=5 / merange=57 / temporal-mvp / no-frame-dup / no-hme / weightp / no-weightb / no-analyze-src-pics / deblock=0:0 / sao / no-sao-non-deblock / rd=4 / selective-sao=4 / no-early-skip / rskip / no-fast-intra / no-tskip-fast / no-cu-lossless / no-b-intra / no-splitrd-skip / rdpenalty=0 / psy-rd=1.30 / psy-rdoq=2.00 / no-rd-refine / no-lossless / cbqpoffs=0 / crqpoffs=0 / rc=crf / crf=18.0 / qcomp=0.60 / qpstep=4 / stats-write=0 / stats-read=0 / ipratio=1.40 / pbratio=1.30 / aq-mode=4 / aq-strength=1.10 / cutree / zone-count=0 / no-strict-cbr / qg-size=32 / no-rc-grain / qpmax=69 / qpmin=0 / no-const-vbv / sar=1 / overscan=0 / videoformat=5 / range=0 / colorprim=2 / transfer=2 / colormatrix=2 / chromaloc=0 / display-window=0 / cll=0,0 / min-luma=0 / max-luma=1023 / log2-max-poc-lsb=8 / vui-timing-info / vui-hrd-info / slices=1 / no-opt-qp-pps / no-opt-ref-list-length-pps / no-multi-pass-opt-rps / scenecut-bias=0.05 / hist-threshold=0.01 / no-opt-cu-delta-qp / no-aq-motion / no-hdr10 / no-hdr10-opt / no-dhdr10-opt / no-idr-recovery-sei / analysis-reuse-level=0 / analysis-save-reuse-level=0 / analysis-load-reuse-level=0 / scale-factor=0 / refine-intra=0 / refine-inter=0 / refine-mv=1 / refine-ctu-distortion=0 / no-limit-sao / ctu-info=0 / no-lowpass-dct / refine-analysis-type=0 / copy-pic=1 / max-ausize-factor=1.0 / no-dynamic-refine / no-single-sei / no-hevc-aq / no-svt / no-field / qp-adaptation-range=1.00 / no-scenecut-aware-qpconformance-window-offsets / right=0 / bottom=0
Language : English
Default : Yes
Forced : No
Color range : Limited

Audio
ID : 2
Format : E-AC-3
Format/Info : Enhanced AC-3
Commercial name : Dolby Digital Plus
Codec ID : A_EAC3
Duration : 1 h 41 min
Bit rate mode : Constant
Bit rate : 448 kb/s
Channel(s) : 6 channels
Channel layout : L R C LFE Ls Rs
Sampling rate : 48.0 kHz
Frame rate : 31.250 FPS (1536 SPF)
Bit depth : 24 bits
Compression mode : Lossy
Stream size : 324 MiB (4%)
Writing library : Lavc58.54.100 eac3
Language : English
Service kind : Complete Main
Default : Yes
Forced : No

Text #1
ID : 3
Format : PGS
Codec ID : S_HDMV/PGS
Codec ID/Info : Picture based subtitle format used on BDs/HD-DVDs
Duration : 1 h 39 min
Bit rate : 29.1 kb/s
Count of elements : 2048
Stream size : 20.7 MiB (0%)
Title : SDH
Language : English
Default : No
Forced : No

Text #2
ID : 4
Format : PGS
Codec ID : S_HDMV/PGS
Codec ID/Info : Picture based subtitle format used on BDs/HD-DVDs
Duration : 1 h 39 min
Bit rate : 21.1 kb/s
Count of elements : 1348
Stream size : 15.1 MiB (0%)
Language : Danish
Default : No
Forced : No

Text #3
ID : 5
Format : PGS
Codec ID : S_HDMV/PGS
Codec ID/Info : Picture based subtitle format used on BDs/HD-DVDs
Duration : 1 h 40 min
Bit rate : 21.0 kb/s
Count of elements : 1358
Stream size : 15.1 MiB (0%)
Language : Finnish
Default : No
Forced : No

Text #4
ID : 6
Format : PGS
Codec ID : S_HDMV/PGS
Codec ID/Info : Picture based subtitle format used on BDs/HD-DVDs
Duration : 1 h 40 min
Bit rate : 20.7 kb/s
Count of elements : 2004
Stream size : 14.9 MiB (0%)
Language : French
Default : No
Forced : No

Text #5
ID : 7
Format : PGS
Codec ID : S_HDMV/PGS
Codec ID/Info : Picture based subtitle format used on BDs/HD-DVDs
Duration : 1 h 39 min
Bit rate : 32.0 kb/s
Count of elements : 2104
Stream size : 22.9 MiB (0%)
Language : German
Default : No
Forced : No

Text #6
ID : 8
Format : PGS
Codec ID : S_HDMV/PGS
Codec ID/Info : Picture based subtitle format used on BDs/HD-DVDs
Duration : 1 h 39 min
Bit rate : 17.1 kb/s
Count of elements : 2128
Stream size : 12.2 MiB (0%)
Language : Japanese
Default : No
Forced : No

Text #7
ID : 9
Format : PGS
Codec ID : S_HDMV/PGS
Codec ID/Info : Picture based subtitle format used on BDs/HD-DVDs
Duration : 1 h 39 min
Bit rate : 24.0 kb/s
Count of elements : 1726
Stream size : 17.1 MiB (0%)
Language : Norwegian
Default : No
Forced : No

Text #8
ID : 10
Format : PGS
Codec ID : S_HDMV/PGS
Codec ID/Info : Picture based subtitle format used on BDs/HD-DVDs
Duration : 1 h 40 min
Bit rate : 20.6 kb/s
Count of elements : 1942
Stream size : 14.8 MiB (0%)
Title : Castilian
Language : Spanish
Default : No
Forced : No

Text #9
ID : 11
Format : PGS
Codec ID : S_HDMV/PGS
Codec ID/Info : Picture based subtitle format used on BDs/HD-DVDs
Duration : 1 h 40 min
Bit rate : 25.5 kb/s
Count of elements : 1862
Stream size : 18.4 MiB (0%)
Title : Latin American
Language : Spanish
Default : No
Forced : No

Text #10
ID : 12
Format : PGS
Codec ID : S_HDMV/PGS
Codec ID/Info : Picture based subtitle format used on BDs/HD-DVDs
Duration : 1 h 39 min
Bit rate : 20.0 kb/s
Count of elements : 1416
Stream size : 14.3 MiB (0%)
Language : Swedish
Default : No
Forced : No

Menu
00:00:00.000 : :Chapter 1
00:04:01.074 : :Chapter 2
00:06:40.650 : :Chapter 3
00:09:34.157 : :Chapter 4
00:13:09.330 : :Chapter 5
00:18:28.107 : :Chapter 6
00:23:02.881 : :Chapter 7
00:27:14.800 : :Chapter 8
00:31:29.930 : :Chapter 9
00:35:45.643 : :Chapter 10
00:39:03.424 : :Chapter 11
00:43:35.530 : :Chapter 12
00:46:15.940 : :Chapter 13
00:51:40.139 : :Chapter 14
00:54:34.313 : :Chapter 15
00:56:20.294 : :Chapter 16
00:59:40.285 : :Chapter 17
01:03:28.763 : :Chapter 18
01:09:40.259 : :Chapter 19
01:12:07.448 : :Chapter 20
01:15:41.370 : :Chapter 21
01:18:40.633 : :Chapter 22
01:23:23.749 : :Chapter 23
01:27:21.361 : :Chapter 24
01:30:39.267 : :Chapter 25
01:34:31.875 : :Chapter 26
01:36:29.784 : :Chapter 27
01:37:32.346 : :Chapter 28


Source Information



General
Unique ID : 250978342690989720828477586628348747939 (0xBCD0ABA9B28492CE694CB30B6AA420A3)
Complete name : Cradle.2.the.Grave.2003.초고화질.BluRay.REMUX.AVC.DTS-HD.MA.5.1-EPSiLON.mkv
Format : Matroska
Format version : Version 4
File size : 15.8 GiB
Duration : 1 h 41 min
Overall bit rate mode : Variable
Overall bit rate : 22.3 Mb/s
Encoded date : UTC 2020-01-27 05:53:59
Writing application : mkvmerge v43.0.0 ('The Quartermaster') 64-bit
Writing library : libebml v1.3.10 + libmatroska v1.5.2
IMDB : tt0306685
TMDB : movie/10623

Video
ID : 1
Format : AVC
Format/Info : Advanced Video Codec
Format profile : [email protected]
Format settings : CABAC / 2 Ref Frames
Format settings, CABAC : Yes
Format settings, Reference frames : 2 frames
Codec ID : V_MPEG4/ISO/AVC
Duration : 1 h 41 min
Bit rate mode : Variable
Bit rate : 17.9 Mb/s
Width : 1 920 pixels
Height : 1 080 pixels
Display aspect ratio : 16:9
Frame rate mode : Constant
Frame rate : 23.976 (24000/1001) FPS
Color space : YUV
Chroma subsampling : 4:2:0
Bit depth : 8 bits
Scan type : Progressive
Bits/(Pixel*Frame) : 0.361
Stream size : 12.7 GiB (80%)
Title : MPEG-4 AVC Video / 17944 kbps / 초고화질 / 23.976 fps / 16:9 / High Profile 4.0
Language : English
Default : Yes
Forced : No

Audio
ID : 2
Format : DTS XLL
Format/Info : Digital Theater Systems
Commercial name : DTS-HD Master Audio
Codec ID : A_DTS
Duration : 1 h 41 min
Bit rate mode : Variable
Bit rate : 4 114 kb/s
Channel(s) : 6 channels
Channel layout : C L R Ls Rs LFE
Sampling rate : 48.0 kHz
Frame rate : 93.750 FPS (512 SPF)
Bit depth : 24 bits
Compression mode : Lossless
Stream size : 2.91 GiB (18%)
Language : English
Default : Yes
Forced : No

Text #1
ID : 3
Format : PGS
Codec ID : S_HDMV/PGS
Codec ID/Info : Picture based subtitle format used on BDs/HD-DVDs
Duration : 1 h 39 min
Bit rate : 29.1 kb/s
Count of elements : 2048
Stream size : 20.7 MiB (0%)
Title : SDH
Language : English
Default : No
Forced : No

Text #2
ID : 4
Format : PGS
Codec ID : S_HDMV/PGS
Codec ID/Info : Picture based subtitle format used on BDs/HD-DVDs
Duration : 1 h 39 min
Bit rate : 21.1 kb/s
Count of elements : 1348
Stream size : 15.1 MiB (0%)
Language : Danish
Default : No
Forced : No

Text #3
ID : 5
Format : PGS
Codec ID : S_HDMV/PGS
Codec ID/Info : Picture based subtitle format used on BDs/HD-DVDs
Duration : 1 h 40 min
Bit rate : 21.0 kb/s
Count of elements : 1358
Stream size : 15.1 MiB (0%)
Language : Finnish
Default : No
Forced : No

Text #4
ID : 6
Format : PGS
Codec ID : S_HDMV/PGS
Codec ID/Info : Picture based subtitle format used on BDs/HD-DVDs
Duration : 1 h 40 min
Bit rate : 20.7 kb/s
Count of elements : 2004
Stream size : 14.9 MiB (0%)
Language : French
Default : No
Forced : No

Text #5
ID : 7
Format : PGS
Codec ID : S_HDMV/PGS
Codec ID/Info : Picture based subtitle format used on BDs/HD-DVDs
Duration : 1 h 39 min
Bit rate : 32.0 kb/s
Count of elements : 2104
Stream size : 22.9 MiB (0%)
Language : German
Default : No
Forced : No

Text #6
ID : 8
Format : PGS
Codec ID : S_HDMV/PGS
Codec ID/Info : Picture based subtitle format used on BDs/HD-DVDs
Duration : 1 h 39 min
Bit rate : 17.1 kb/s
Count of elements : 2128
Stream size : 12.2 MiB (0%)
Language : Japanese
Default : No
Forced : No

Text #7
ID : 9
Format : PGS
Codec ID : S_HDMV/PGS
Codec ID/Info : Picture based subtitle format used on BDs/HD-DVDs
Duration : 1 h 39 min
Bit rate : 24.0 kb/s
Count of elements : 1726
Stream size : 17.1 MiB (0%)
Language : Norwegian
Default : No
Forced : No

Text #8
ID : 10
Format : PGS
Codec ID : S_HDMV/PGS
Codec ID/Info : Picture based subtitle format used on BDs/HD-DVDs
Duration : 1 h 40 min
Bit rate : 20.6 kb/s
Count of elements : 1942
Stream size : 14.8 MiB (0%)
Title : Castilian
Language : Spanish
Default : No
Forced : No

Text #9
ID : 11
Format : PGS
Codec ID : S_HDMV/PGS
Codec ID/Info : Picture based subtitle format used on BDs/HD-DVDs
Duration : 1 h 40 min
Bit rate : 25.5 kb/s
Count of elements : 1862
Stream size : 18.4 MiB (0%)
Title : Latin American
Language : Spanish
Default : No
Forced : No

Text #10
ID : 12
Format : PGS
Codec ID : S_HDMV/PGS
Codec ID/Info : Picture based subtitle format used on BDs/HD-DVDs
Duration : 1 h 39 min
Bit rate : 20.0 kb/s
Count of elements : 1416
Stream size : 14.3 MiB (0%)
Language : Swedish
Default : No
Forced : No

Menu
00:00:00.000 : en:Chapter 1
00:04:01.074 : en:Chapter 2
00:06:40.650 : en:Chapter 3
00:09:34.157 : en:Chapter 4
00:13:09.330 : en:Chapter 5
00:18:28.107 : en:Chapter 6
00:23:02.881 : en:Chapter 7
00:27:14.800 : en:Chapter 8
00:31:29.930 : en:Chapter 9
00:35:45.643 : en:Chapter 10
00:39:03.424 : en:Chapter 11
00:43:35.530 : en:Chapter 12
00:46:15.940 : en:Chapter 13
00:51:40.139 : en:Chapter 14
00:54:34.313 : en:Chapter 15
00:56:20.294 : en:Chapter 16
00:59:40.285 : en:Chapter 17
01:03:28.763 : en:Chapter 18
01:09:40.259 : en:Chapter 19
01:12:07.448 : en:Chapter 20
01:15:41.370 : en:Chapter 21
01:18:40.633 : en:Chapter 22
01:23:23.749 : en:Chapter 23
01:27:21.361 : en:Chapter 24
01:30:39.267 : en:Chapter 25
01:34:31.875 : en:Chapter 26
01:36:29.784 : en:Chapter 27
01:37:32.346 : en:Chapter 28

번역하기: 한국 한국어


<< 이 게시판에서 관련된 자료 목록 >>
 [구글검색] 구글에서 바다보아 검색 - 구글에서 토렌트를 검색하실 때에 검색어 뒤에 바다보아를 꼭 붙여서 검색하세요.

토렌트서치 보안자료실

   

   
제목

IMFORMATION STORE

상단으로 가운데로 하단으로